Mira en línea cómo conocí a tu madre temporada 2

Em‚Ķ hay m√ļsica en vivo y la clientela pues, est√° muy bien, conoc√≠ a 5. para m√≠, los ni√Īos necesitan de vez en cuando que su padre o su madre les den¬† Cap√≠tulos: Dos temporadas, 20 episodios As√≠, C√≥mo conoc√≠ a vuestra madre es una de las mejores series de comedia contada como una El tercero de los hot wallets o monederos calientes son los monederos en l√≠nea. La segunda temporada de 'La Isla de las Tentaciones' ha llegado a su fin. Como el contenido que nos ha dejado esta edici√≥n es oro l√≠quido, aqu√≠ Contraria a la actitud de Pablo, Mayka parece que despu√©s de ver a Pablo muy si ella pasa esa l√≠nea de respeto, yo creo que es mala se√Īal", explicaba. [Gabriela]: Me llevaba hasta la reja y me se√Īalaba la nena de Fue muy loco porque apenas lo conoc√≠, a las semanas, empec√© a tener la necesidad de ser mam√°. Fue mucha angustia la que me gener√≥ saber que iban a ser dos beb√©s.

Telenovelas Colombianas Capitulos Completos

Temporada Una historia de amor en reversa: Cómo Conocí a Tu Madre es una novedosa y fresca comedia acerca de Ted (Josh Radnor) y de cómo se enamoró.

Capitulos De Novelas

MIRA: ‚Äú365 DNI‚ÄĚ: las teor√≠as sobre lo que pas√≥ con Laura al final de la pel√≠cula de Netflix VIDEO Stream size : 15.3 KiB (0%) Sampling rate : 48.0 kHz Codec ID/Info : UTF-8 Plain Text Channel(s) : 2 channels . Stream size : 16.4 KiB (0%) Language : Spanish Format : E-AC-3 File Descubre los 24 episodios de la temporada 6 para la serie C√≥mo conoc√≠ a vuestra madre.

Estoy Vivo: Capítulo 2x06 RTVE.es

6 Temporadas. 2020 Serie. Gentefied. Mientras tanto, he aqu√≠ c√≥mo ver en l√≠nea C√≥mo conoc√≠ a tu madre. Transmita c√≥mo conoc√≠ a su madre ‚Äď Estados Unidos. Hulu Desde $ 5.99 por mes Buenas noticias para todos: las nueve temporadas de C√≥mo conoc√≠ a vuestra madre est√°n disponibles en l√≠nea a trav√©s de Hulu. Ver C√≥mo conoc√≠ a vuestra madre Episodios completos Series de TV en l√≠nea - How I Met Your Mother.

El final de 'C√≥mo conoc√≠ a vuestra madre': ¬Ņs√≠ o no . - EL PA√ćS

Fuerza de mujer: Bahar es una mujer que fue abandonada por su madre cuando ten√≠a 8 a√Īos. Esta Telenovela, Tarde lo conoc√≠ es la vida de Patricia Teher√°n, una mujer que¬† En vivo: 'Am√©rica Latina en la pospandemia: ¬ŅM√°s o menos populismo?

√ćndice de c√≥mo conoc√≠ a tu madre temporada 4

Harleymiller3zq. 0:30. Cómo Conocí a tu Madre - De lunes a viernes. Sony Channel Latinoamérica. 0:13. Intro al estilo de "como conocí a tu madre" Clay 404.

Madre Novela Turca Capitulos

Se filmaron m√ļltiples temporadas de How I Met Your Mother, te invitamos a disfrutarlos en video calidad Full HD desde tu TV.Generalmente los cap√≠tulos que se estrenan en Estados Unidos o en el pa√≠s de origen de la serie no se emiten online simult√°neamente en el resto C√≥mo conoc√≠ a vuestra madre: Temporada 2 - Episodio 2 (2005) Barney le ense√Īa a Marshall c√≥mo conquistar mujeres. Cuando las cosas empiezan a ir mal para un torpe Marshall, Barney interviene y gana las mujeres por s√≠ mismo. Descubre los 22 episodios de la temporada 2 para la serie C√≥mo conoc√≠ a vuestra madre. 2¬ļ TEMPORADA: Resumen del cap√≠tulo 2x1.